#TITLE:Triangle Girl's Heart;
#SUBTITLE:;
#ARTIST:Hatsune Miku;
#TITLETRANSLIT:;
#SUBTITLETRANSLIT:;
#ARTISTTRANSLIT:;
#CREDIT:;
#BANNER:Hatsune Miku - Triangle Girl's Heart-banner.jpg;
#BACKGROUND:Hatsune Miku - Triangle Girl's Heart-bg.jpg;
#LYRICSPATH:Hatsune Miku - Triangle Girl's Heart.lrc;
#CDTITLE:CDTitle.png;
#MUSIC:Hatsune Miku - Triangle Girl's Heart.ogg;
#OFFSET:-0.040;
#SAMPLESTART:64.863;
#SAMPLELENGTH:12.000;
#SELECTABLE:YES;
#BPMS:0.000=198.100;
#STOPS:;
#BGCHANGES:;
// cache tags:
#FIRSTBEAT:2.000;
#LASTBEAT:358.000;
#SONGFILENAME:songs/Vocaloid Party/Hatsune Miku - Triangle Girl's Heart/Hatsune Miku - Triangle Girl's Heart.sm;
#HASMUSIC:1;
#HASBANNER:1;
#MUSICLENGTH:110.406;
// end cache tags

//---------------dance-single - ----------------
#NOTES:
     dance-single:
     :
     Hard:
     9:
     0.738,0.932,0.245,0.399,0.032,498.000,27.000,44.000,13.000,4.000:
0000
0000
0000
0000
1000
1000
0010
0100
,
0000
0001
0100
0010
0000
0100
0010
1000
,
0020
0000
0130
0M00
0100
0100
0010
1000
,
0000
0001
1000
0001
0000
0100
0010
1000
,
0200
0000
1300
M000
0010
0010
0001
0100
,
0000
0010
1000
0010
0000
0100
0010
0100
,
0002
0000
1003
M000
0100
0100
0010
1000
,
0000
1000
0001
0010
0101
0000
0000
1001
,
0000
0000
1010
0000
1000
0001
0100
0001
,
0000
0100
0001
1000
0000
0001
0100
0001
,
0200
0000
0010
0000
0301
0100
0010
0100
,
0000
0010
0100
0010
0000
1000
0010
0001
,
0020
0000
1000
0000
0130
0001
1000
0001
,
0000
0010
0001
0100
0000
0001
0100
1000
,
0200
0000
0010
0000
0301
1000
0100
0010
,
0000
0001
0100
0010
0000
1000
0100
0010
,
0001
0010
0100
0010
0001
1000
0001
0200
,
000M
1300
0100
0020
0M00
1030
0001
0100
,
0101
0000
0101
0000
1000
0010
1000
0002
,
M000
0013
0100
0020
0M00
0031
1000
0010
,
1010
0000
1010
0000
0010
0100
0001
2000
,
000M
3100
0010
2000
00M0
3100
0001
0010
,
0011
0000
0011
0000
0001
0100
0010
2000
,
00M0
3100
0001
0200
000M
1300
0010
0100
,
0010
0000
1000
0100
1000
0100
1000
0000
0001
0000
0100
0000
0010
0000
0110
0000
,
1000
0001
1001
1000
1010
0010
0100
0110
,
0001
0000
1000
0000
0010
0100
0010
0100
0010
0000
0000
0000
0000
0000
1000
0000
,
0010
0000
0000
0200
0000
0010
0000
0310
,
1000
0001
0010
0001
0100
0000
0000
0010
,
1000
0000
0000
0200
0000
1000
0000
1300
,
0010
0100
0001
0010
0200
0000
1000
0000
,
0000
0000
1000
0000
0000
0000
1300
0010
,
0000
0000
0100
0000
0010
0000
0000
1000
,
0000
0001
0010
0100
1000
0000
0010
0000
,
1000
0100
0000
0000
0010
0000
0000
0001
,
0100
0000
0000
1010
0000
0001
0000
0100
,
0010
1000
0010
0100
0010
0000
0000
1000
,
0001
0000
0000
1100
0000
0001
0000
0100
,
0001
0010
0100
0010
0001
0000
1000
0010
,
1000
0000
0001
0010
0001
0100
0001
0100
,
0020
0000
1030
0000
0100
0000
0000
1000
,
0000
0001
0100
0010
0100
0000
0010
0000
,
1000
0100
0000
0000
2000
0000
0000
3001
,
0200
0000
0000
0300
2020
0000
3030
2002
,
0000
3003
0210
0000
0002
0000
0000
0000
,
0303
0001
1000
0001
0202
0000
0303
1020
,
0000
0000
0100
0030
0100
0000
0000
0000
,
0000
0010
0100
0010
1000
0000
0010
0000
,
0010
0010
1000
0000
,
0000
0010
1000
0001
0200
0000
0000
0000
,
0000
0000
0000
0000
0320
0000
0130
0001
,
0100
0001
0100
0010
2000
0000
3001
0010
,
0001
0010
0001
0100
0040
0000
0000
0000
,
0000
0000
0030
0000
0110
0000
0010
0100
,
0010
1000
0001
1000
0000
0010
0100
0000
,
0002
0000
0M03
0000
1100
0000
1000
0001
,
0100
0000
0010
0100
0000
0100
0001
0000
,
2000
0020
0001
0000
,
0000
3000
0200
0000
1000
0000
0000
0000
,
0030
0000
0301
0100
0010
0000
0100
0010
,
1000
0100
0000
0010
0001
0200
0000
0010
,
0000
0301
0000
0000
0101
0000
0001
0100
,
0010
1000
0100
0010
0000
0100
0010
0000
,
0002
0000
00M3
0000
1100
0000
0100
1000
,
0010
0100
0010
1000
0000
0001
0010
0000
,
0001
0220
0001
0000
,
0330
2002
0010
0003
,
3000
0001
1000
0010
0100
0000
0010
1000
,
0010
1000
0000
0100
1000
0020
0000
0100
,
0000
1030
0000
0000
0001
1000
0001
1000
,
0000
0010
0100
0010
0000
1000
0001
1000
,
0010
0100
0010
0000
1000
0000
0010
0000
0100
0000
0010
0000
0100
0000
0010
0000
,
0000
1000
0010
1000
0000
0001
0100
0001
,
0100
0010
0100
0000
0001
0000
1000
0000
0010
0000
1000
0000
0010
0000
1000
0000
,
0000
0001
0010
0001
0000
0100
0010
0100
,
0001
1000
0001
0000
0100
0000
0001
0000
0010
0000
0001
0000
0010
0000
0001
0000
,
0000
1000
0001
1000
0000
0010
1000
0001
,
0100
0010
0100
0001
1000
0010
1000
0010
,
0000
0100
0001
0100
0120
0000
1000
0000
,
0100
0000
1000
0000
0130
0010
1000
0100
,
0000
1000
0001
0100
0010
0100
0001
0100
,
0010
1000
0001
1000
0010
0100
0010
1000
,
0000
0010
0100
0001
0000
0010
0100
1000
,
0100
0010
0001
0100
0010
1000
0010
0100
,
0010
1000
0010
0100
0010
1000
0001
0010
,
0100
1000
0010
0100
0001
1000
0100
0010
,
0000
0001
0010
0100
0000
1000
0010
0100
,
0010
1000
0001
1000
0100
1000
0010
0100
,
0000
0010
0100
0001
0000
1000
0100
1000
,
0010
0100
0001
0010
0100
0000
0000
0000
;

//---------------dance-single - ----------------
#NOTES:
     dance-single:
     :
     Challenge:
     11:
     0.967,1.000,0.317,0.181,0.308,692.000,35.000,20.000,28.000,0.000:
0000
0000
0000
0000
1000
0100
1000
0010
,
0000
1000
0001
0100
0000
0001
0010
0001
,
0200
0302
0203
0320
1030
0001
0100
0010
,
0000
1000
0001
0100
0000
0010
1000
0001
,
0200
0320
0230
0320
1030
0001
1000
0010
,
0000
0100
0001
1000
0000
0010
1000
0100
,
0020
0230
2300
3002
0103
0010
0100
0001
,
0000
0010
0001
0100
0110
0100
0100
0101
,
0001
0001
1001
1000
1000
0010
1000
0010
,
0100
0001
0100
0001
0010
0100
0010
0001
,
1000
0100
0010
0000
0001
0100
0010
0000
1000
0000
0001
0000
1000
0000
0001
0000
,
0100
0001
0100
0001
1000
0010
0100
0010
,
1000
0001
0100
0000
0010
1000
0100
0000
0010
0000
0001
0000
0010
0000
0001
0000
,
1000
0100
1000
0100
0010
0001
1000
0100
,
0010
0001
0100
0000
0010
1000
0100
0000
1000
0000
0010
0000
1000
0000
0010
0000
,
0100
0010
0100
0010
1000
0001
0100
0010
,
1000
0100
0010
0001
0100
0000
0001
0000
1000
0000
0010
0000
1000
0100
1000
0000
,
0001
0000
0010
0000
0001
0100
0001
0000
1000
0000
0010
0000
1000
0001
1000
0000
,
0001
0010
0100
1000
0100
0010
0001
0000
1000
0000
0010
0000
0100
0010
0100
0000
,
0001
0000
0100
0000
0010
1000
0010
0000
0100
0000
0001
0000
0010
0001
0010
0000
,
0100
1000
0001
0010
0100
1000
0001
0000
0100
0000
0010
0000
1000
0100
1000
0000
,
0010
0000
0100
0000
0001
0010
0001
0000
0100
0000
0010
0000
1000
0100
1000
0000
,
0001
0010
0100
1000
0100
0010
0001
0000
0100
0000
0001
0000
0100
0010
0100
0000
,
0010
0000
1000
0000
0001
0100
0001
0000
1000
0000
0010
0000
0100
0001
0100
0000
,
0001
0010
0100
1000
0001
0010
0100
0000
0010
0000
0100
0000
1000
0100
0010
0100
,
0010
0000
0001
0000
0010
0100
0010
0100
1000
0000
0010
0000
0100
0010
1000
0010
,
0100
0000
0001
0000
0010
0001
0100
0001
0010
0000
0000
0000
1100
0000
0000
0000
,
0010
1010
0100
0110
,
0001
0100
0010
0000
1000
0000
1100
0000
,
0001
0000
1010
0000
0010
0010
0100
0000
,
0001
0001
2000
0000
0010
0000
3001
000M
,
0002
0000
1000
0000
0103
0M00
0200
0000
,
0010
0000
0301
000M
0001
0001
0100
0000
,
0100
0100
0010
0000
1000
0001
1000
0001
,
1000
0010
0100
0000
0110
0100
0001
0100
,
0010
1000
0001
0100
1000
0100
0010
0100
,
0001
0010
0100
0010
0001
0100
1000
0100
,
0010
1000
0100
0010
0001
0100
0001
1000
,
0010
0000
0000
0100
0010
0000
1000
0000
0100
0000
0010
0000
0100
0000
1000
0000
,
0010
0100
0001
1000
0010
0100
0010
1000
,
0001
0100
0010
1000
0100
1000
0010
0001
,
0010
0100
0010
1000
0010
0100
0001
1000
,
0010
0100
0000
0001
0100
0000
0010
0000
1000
0000
0000
0000
0010
0000
0000
0000
,
0101
0000
0001
0000
0000
0000
1000
0010
1000
0000
0010
0100
0010
0000
0000
0000
,
1000
0000
0000
0000
0100
0000
0010
0001
0010
0000
0000
0000
0000
0000
0000
0000
,
0110
0000
0010
0000
0000
0000
0001
0100
0001
0000
1000
0100
1000
0000
0000
0000
,
1001
0000
0001
0010
0001
0000
0000
0000
0100
0000
0001
0000
0100
0000
0010
0000
,
1000
0010
0100
0001
0100
0010
1000
0010
,
0100
0001
1000
0001
0010
0100
1000
0010
,
0100
0010
1000
0001
1000
0010
0100
0001
,
0010
0100
1000
0010
0100
0MM0
0100
0010
,
1000
0010
0100
0010
1000
0001
0100
0010
,
0100
0000
0001
0000
0010
0000
0100
0000
1000
0000
0010
0100
0000
0000
0010
0100
,
0010
0000
1000
0010
2000
0000
3000
0000
0101
0000
0000
0000
0001
0000
0100
0000
,
0010
0100
0001
0000
1000
0000
0010
0000
0100
0000
0001
0000
0100
0000
0000
0000
,
0001
0100
0101
0000
1000
0100
1000
0010
,
0100
0001
0010
0000
0100
0000
1000
0000
0010
0000
0100
0000
0010
0000
0000
0000
,
1000
0010
0100
0000
0101
0000
MMM0
0000
0201
0000
0000
0000
0001
0000
0001
0000
,
0300
1000
1010
0MMM
2010
0000
0010
0010
,
3000
0010
1000
0100
0010
0100
1000
0010
,
0100
0001
0010
0100
0010
0001
1000
0001
,
0100
0010
0000
0100
0001
0000
0000
0000
1010
0000
0000
0000
0010
0000
0100
0000
,
0010
0100
0001
0000
0010
0000
0100
0000
1000
0000
0100
0000
1000
0000
0000
0000
,
0010
0100
0110
0000
0010
1000
0010
0100
,
0010
0100
0001
0000
1000
0000
0010
0000
1000
0000
0001
0000
0010
0000
0000
0000
,
0100
0000
0000
1000
0010
0000
0000
0000
0100
0000
0001
0000
0100
0000
0002
0000
,
MMM0
0103
0010
0000
1000
0010
1000
0020
,
MM0M
1030
0100
1000
0010
0100
0001
0100
,
0010
1000
0001
0100
0110
00M0
0101
0M00
,
1001
0000
0001
0010
0001
0000
0000
0000
1000
0000
1000
0000
0010
0000
1000
0000
,
0000
0001
0001
0100
0000
0010
1000
0100
,
1100
0010
0011
0001
0100
0100
0001
0100
,
0000
0010
0010
1000
0000
0010
0100
0001
,
0010
0100
0010
0000
0100
1000
0100
0000
0010
0000
0010
0000
0001
0000
0010
0000
,
0000
0100
0100
0010
0000
0001
0100
0010
,
1010
0001
0101
0100
0010
1000
0100
0010
,
0001
0100
0010
1000
0010
0100
0001
0100
,
0010
0000
0000
1000
0010
0000
0100
0010
0100
0000
0010
0000
1000
0000
0001
0000
,
0100
0010
1000
0001
1100
0100
0110
0010
,
0011
0001
0101
0100
0010
1000
0010
1000
,
0000
0010
0100
0010
0100
0000
0101
0000
,
0100
0000
0000
0001
1000
0000
0010
0000
0100
0000
0001
0000
0010
0000
0001
0000
,
0000
0100
0010
1000
0000
0100
0010
0001
,
0010
0100
1000
0010
1000
0010
0001
0010
,
0100
0010
1000
0100
1100
0000
MMM1
0000
,
1MMM
0000
MMM1
0000
1001
0000
0001
0010
,
0100
1000
0100
1000
0010
0100
0010
1000
,
0010
0010
1000
1000
0101
0001
0100
0010
,
1000
0100
1000
0001
0100
1000
0100
0010
,
1000
0000
0010
0100
0010
0000
1000
0100
1000
0000
0000
0000
0000
0000
0000
0000
;

//---------------dance-single - ----------------
#NOTES:
     dance-single:
     :
     Medium:
     7:
     0.527,0.527,0.136,0.118,0.000,379.000,15.000,13.000,0.000,0.000:

0000
0000
0000
0000
,
0000
0000
0000
0000
,
0000
0000
0000
0000
,
0000
0000
0000
0000
,
0000
0000
0000
0000
,
0000
0000
0000
0000
,
0000
0000
0000
0000
,
0000
0000
0000
0000
1001
0000
0000
1001
,
0000
0000
1001
0000
0001
0000
0100
0010
,
0000
1000
0100
1000
0000
0010
0100
0000
,
0010
0100
0010
0000
1000
0000
0001
1000
,
0000
0001
0100
0001
0000
1000
0100
0000
,
1000
0010
1000
0000
0001
0000
0100
0010
,
0000
0100
0001
0100
0000
0010
1000
0000
,
0001
1000
0001
0000
0100
0000
0001
0010
,
0000
0100
1000
0100
0000
0010
0001
0000
,
0100
0001
0100
0001
0100
0000
0010
1000
,
0000
0001
0100
0001
0000
1000
0010
0000
,
0100
0001
0100
0001
0100
0000
0010
1000
,
0000
0001
0010
0001
0000
0100
0001
0000
,
1000
0001
1000
0001
1000
0000
0010
0100
,
0000
0010
1000
0010
0000
0100
0010
0000
,
0100
0001
0100
0001
0100
0000
0010
1000
,
0000
0001
0100
0001
0000
1000
0010
0000
,
0100
0010
0100
0010
0100
0000
0001
1000
,
0000
0001
1000
0000
1010
0000
0100
0001
,
0000
0100
0001
0000
1000
0000
0001
0000
,
0100
0010
0100
0010
,
0100
0001
0100
0000
0001
0000
1000
0000
,
0010
1000
0010
0100
,
0001
1000
0001
0000
0100
0000
0010
0000
,
1000
0000
0001
0000
0100
0000
0000
0020
,
0000
0000
0230
0000
0302
0000
0000
2003
,
0000
3001
0100
0001
1000
0000
0010
0000
,
0010
1000
0010
1000
0001
0000
1000
0000
,
0010
0000
0100
0000
0001
1000
0010
0000
,
0100
0001
1000
0000
0010
0000
0100
0000
,
0001
0000
1000
0000
0010
0100
0001
0000
,
1000
0010
0100
0000
0010
0000
1000
0010
,
0100
0000
0101
0000
0001
0000
0100
0001
,
0010
1001
1000
0001
,
0100
0010
0100
0000
0010
1000
0010
1000
,
0010
0100
0000
0000
0010
0000
0100
0000
,
0001
0100
0000
0001
0010
0001
1000
0000
,
0010
1000
0010
0000
0100
0000
0000
0000
,
0001
1000
0000
0010
1000
0010
1000
0000
,
0001
0100
0010
1000
,
0001
0100
0001
0010
0100
0000
0010
0000
,
0001
0100
0010
1000
,
0100
1000
0100
0010
0001
0000
0100
0000
,
0010
0000
0100
0000
0001
0000
1000
0100
,
0010
0100
0010
0000
0001
0000
0010
0001
,
1000
0001
0010
0000
0001
0000
0110
0000
,
0100
1010
0010
1000
,
0001
0000
0100
0010
0000
0100
0001
0000
,
0010
0110
1000
0001
,
0100
0000
0010
1000
0000
0010
0100
0000
,
0001
0100
0020
0000
,
0000
1030
0200
0000
,
0000
0000
1300
0010
1000
0000
0001
0100
,
0001
0100
0000
0001
1000
0001
0000
0100
,
0000
0100
0000
0000
0001
0000
1000
0000
,
0010
0000
1000
0001
0000
1000
0001
0000
,
0100
0110
0010
1000
,
0001
0000
0100
0010
0000
0100
0010
0000
,
1000
0001
0200
0000
,
0000
0310
2000
0000
,
0000
3010
0100
0001
,
0100
0010
1000
0001
,
0100
0000
0010
0000
1010
0000
0010
0100
,
0000
0001
1000
0010
0000
0100
0010
0000
,
1000
0100
0010
0000
0011
0000
1000
0001
,
0000
0100
0001
0010
0000
0001
1000
0000
,
0010
1000
0100
0000
1100
0000
1000
0010
,
0000
0100
0001
1000
0000
0010
0100
0000
,
0001
1000
0010
1000
0020
0000
0000
0000
,
0000
0000
0130
0001
0200
0000
0000
0320
,
0000
2030
3002
0000
,
0000
0000
1003
0010
,
0100
0010
1000
0000
,
0000
0000
1100
0000
,
0010
0000
0101
0000
,
0000
0000
0001
0100
0000
0000
0000
0000
,
0000
0010
1000
0010
0100
0000
0000
0000
,
0000
0000
0010
1000
0010
0000
0000
1000
,
0000
1000
0001
0100
,
0010
0100
0010
1000
,
0001
0010
0100
0010
,
0001
1000
0100
0010
,
0001
1000
0010
0000
;

//---------------dance-single - ----------------
#NOTES:
     dance-single:
     :
     Easy:
     4:
     0.268,0.365,0.018,0.036,0.000,201.000,2.000,4.000,0.000,0.000:
0000
0000
0000
0000
,
0000
0000
0000
0000
,
0000
0000
0000
0000
,
0000
0000
0000
0000
,
0000
0000
0000
0000
,
0000
0000
0000
0000
,
0000
0000
0000
0000
,
0000
0000
0000
0000
,
0000
0000
1000
0000
,
0010
0000
1000
0000
,
0010
0100
0010
0000
,
0100
0000
0001
0000
,
1000
0001
0100
0000
,
0010
0000
1000
0000
,
0100
1000
0010
0000
,
0100
0000
0001
0000
,
1000
0010
0100
0010
,
0000
1000
0000
0100
,
1000
0100
0010
0001
,
0000
0100
0000
0001
,
1000
0010
0100
0010
,
0000
1000
0000
0001
,
0100
0010
0100
0001
,
0000
0100
0000
0010
,
1000
0000
0010
0000
0100
0000
0000
0100
,
0000
0000
0100
0000
0010
0000
0000
0010
,
0000
0010
1000
0000
,
0001
0000
0100
0010
,
1000
0000
0001
0000
,
1000
0000
0010
1000
,
0001
1000
0010
0100
,
0000
0010
0000
0100
,
0000
0001
0000
1000
,
0000
0010
1000
0001
,
0100
0001
0010
0000
,
0001
0000
0100
0000
,
0001
1000
0001
0000
,
0100
0000
0010
0000
,
1000
0100
0010
0000
,
0001
0000
0000
0000
0100
0000
0000
0010
,
0000
0000
0010
0000
1000
0000
0000
0010
,
0000
0100
0001
1000
,
0001
0000
1000
0000
,
0010
0000
0000
0000
0100
0000
0000
0001
,
0000
0100
0010
0000
,
0000
0000
1000
0000
0100
0000
0000
0010
,
0000
0100
1000
0000
,
0001
0000
0100
0000
,
0010
0000
1000
0000
,
0001
0000
0020
0000
,
0001
0000
0032
0100
,
0100
0100
0203
0010
,
0010
0010
0020
0000
,
0000
0330
1001
0000
,
0100
0000
0000
0010
0000
0100
0000
0000
,
0010
0100
0010
0000
,
1000
0000
0000
0001
0000
1000
0000
0000
,
0001
1000
0010
0000
,
0000
0100
0010
0000
,
0000
0001
1000
0000
,
0010
0000
0100
0000
,
0001
0100
0010
0000
,
0100
0000
0000
0001
0000
1000
0000
0000
,
0010
0000
1000
0000
,
0010
0000
0000
0100
0000
0001
0000
0000
,
0100
0010
1000
0000
,
0000
0001
0100
0000
,
0001
1000
0010
0000
,
1000
0000
0001
0000
,
0100
0000
0001
0000
,
0100
0000
0010
0000
,
1000
0100
1000
0000
,
0001
0000
0010
0000
,
0001
0100
0010
0000
,
1000
0000
0010
0000
,
1000
0010
1000
0000
,
0100
0000
0010
0001
,
0100
0010
1000
0000
,
0000
0000
0010
0000
,
1000
0000
0001
0000
,
0000
0000
0100
0000
,
0010
0000
1000
0000
,
0001
0000
0100
0000
,
0010
0000
1000
0000
,
0001
0000
0100
0000
,
0010
0000
1000
0000
,
0000
0000
0001
0000
,
0000
0000
0100
0000
,
0000
0000
0010
0000
,
0000
0000
1001
0000
;

//---------------dance-single - ----------------
#NOTES:
     dance-single:
     :
     Beginner:
     1:
     0.111,0.122,0.009,0.018,0.000,83.000,1.000,2.000,0.000,0.000:
0000
0000
0000
0000
,
0000
0000
0000
0000
,
0000
0000
0000
0000
,
0000
0000
0000
0000
,
0000
0000
0000
0000
,
0000
0000
0000
0000
,
0000
0000
0000
0000
,
0000
0000
0000
0000
,
0000
0000
1000
0000
,
0000
0000
0001
0000
,
0000
0000
1000
0000
,
0000
0000
0001
0000
,
0000
0000
0100
0000
,
0000
0000
0001
0000
,
0000
0000
0100
0000
,
0000
0000
0001
0000
,
0000
0000
0100
0000
,
0000
0000
0010
0000
,
0000
0000
0100
0000
,
0000
0000
0010
0000
,
0000
0000
1000
0000
,
0000
0000
0010
0000
,
0000
0000
1000
0000
,
0000
0000
0010
0000
,
0000
0000
0200
0000
,
0000
0000
0000
0000
,
0000
0000
0310
0000
,
0000
0000
1000
0000
,
0000
0000
0001
0000
,
0000
0000
0100
0000
,
0000
0000
0010
0000
,
0000
0000
0000
0000
,
0000
0000
1000
0000
,
0000
0000
0001
0000
,
0001
0000
0001
0000
,
0000
0000
0100
0000
,
0000
0000
0010
0000
,
0000
0000
1000
0000
,
0000
0000
0020
0000
,
0000
0000
0000
0030
,
0000
0000
1000
0000
,
0000
0000
0010
0000
,
0010
0000
0010
0000
,
0000
0000
0100
0000
,
0000
0000
0001
0000
,
0000
0000
0100
0000
,
0000
0000
0010
0000
,
0000
0000
1000
0000
,
0000
0000
0010
0000
,
0000
0000
0100
0000
,
0000
0000
0010
0000
,
0000
0000
0100
0000
,
0000
0000
0000
0000
,
0000
0000
0010
0000
,
0000
0000
1000
0000
,
1000
0000
0001
0000
,
0000
0000
0100
0000
,
0100
0000
0010
0000
,
0000
0000
1000
0000
,
0000
0000
0001
0000
,
0000
0000
0100
0000
,
0100
0000
0100
0000
,
0000
0000
0001
0000
,
0001
0000
0001
0000
,
0000
0000
1000
0000
,
1000
0000
1000
0000
,
0000
0000
0010
0000
,
0000
0000
0100
0000
,
0000
0000
0001
0000
,
0000
0000
1001
0000
,
0000
0000
1000
0000
,
0000
0000
0001
0000
,
0000
0000
0100
0000
,
0000
0000
0010
0000
,
0000
0000
1000
0000
,
0000
0000
0001
0000
,
0000
0000
1000
0000
,
0000
0000
0010
0000
,
0000
0000
1000
0000
,
0000
0000
0001
0000
,
0000
0000
1000
0000
,
0000
0000
0010
0000
,
0000
0000
0100
0000
,
0000
0000
0001
0000
,
0000
0000
1000
0000
,
0000
0000
0010
0000
,
0000
0000
0000
0000
,
0000
0000
0100
0000
,
0000
0000
0000
0000
,
0000
0000
0010
0000
;
